&title=ジングルベル[DX]
&engtitle=Jingle Bells[DX]
&artist=SEGA Sound Unit [H.]
&first=0
&des=舞舞10年ズ 〜ファイナル〜
&wholebpm=100
&shortid=70
&genre=maimai
&cabinet=DX
&version=maimai DX FESTiVAL
&lv_5=14+
&inote_5=(100){1},
{64}E8,E1/D1/A8/B8,A1/B1/E2/D2,B2/A2/E3/D3,{8}A3/B3/D4/E4,{64}E7,B7/A7/D8/E8,B8/A8/D1/E1,B1/A1/D2/E2,{8}B2/A2/D3/E3,{64}E6,B6/A6/E7/D7,B7/A7/D8/E8,A8/B8/D1/E1,{16}A1/B1/D2/E2,{8},Chf[8:1],A3/B3/A4/B4/A5/B5/A6/B6,,
2/8,A5/D5/D6/B5/E5/E6,{512}7/1-7-3-5^4-6-2[8:3],,,,,,,,{64},,,,,,,{8}A4/B4/D4/E4/E5/D5,,,,8,
1/7,A4/B4/D4/E4/E5/D5,{512}2/8-2-6-4^5-3-7[8:3],,,,,,,,{64},,,,,,,{8}A5/D5/D6/B5/E5/E6,,,,1,
3/5,A8/B8/D1/E1/D8/E8,{512}6/4-6-2-8^1-7-3[8:3],,,,,,,,{64},,,,,,,{8}A1/B1/D1/E1/D2/E2,,,,5,
4/6,A1/B1/D1/E1/D2/E2,{512}6/5s1<8z4[4:1],,,,,,,,{64},,,,,,,{16}4/7,5/6,{2},
{8}1/7,A4/B4/D4/E4/E5/D5,{512}2/8-6-2-4^3-5-1[8:3],,,,,,,,{64},,,,,,,{8}A3/B3/E3/D3/E4/D4,,,,2,
{8}8/3,A5/D5/D6/B5/E5/E6,{512}7/1-3-7-5^6-4-8[8:3],,,,,,,,{64},,,,,,,{8}A6/B6/D6/E6/E7/D7,,,,7,
1/6,4/7,3/8,2/5,{64}D7/D1,A6/A1,D6/D2,A2/A5,,,,,E7/E1,B6/B1,B5/B2,E3/E5,,,,,D1/D3,A3/A8,D4/D8,A4/A7,,,,,E1/E3,B3/B8,B4/B7,E5/E7,,,,,
{16}1/5,1/5,2/6,2/6,3/7,3/7,4/8,4/8,{64}1/5,4,3,2,1,8,7,6,{8}5/C1f,,,
4bx/1b>3b[16:1],5bx/8b<6b[16:1],4bx/1b-4b[16:1],5bx/8b-5b[16:1],4bx/1b>3b[16:1],5bx/8b<6b[16:1],4bx/1b-4b[16:1],5bx/8b-5b[16:1],
4bx/1b>3b[16:1],5bx/8b,4bx/1bs5[8:1],{16},8x,8x,,6b,6b,7b,7b,8b,8b,
7hb[2:1]/1,1,2,2,3,3,{64}2,1,8,,6,5,4,3,{16}2hb[2:1],8,7,7,6,6,{64}7,8,1,,3,4,5,6,
{16}7b,3/8,3/8,1/4,2/5,1/4,3/8,2/7,{64}1,8,7,6,5,4,3,2,1,8,7,6,5b/C1f,,,,{8},,
5bx/8b<6b[16:1],4bx/1b>3b[16:1],5bx/8b-5b[16:1],4bx/1b-4b[16:1],5bx/8b<6b[16:1],4bx/1b>3b[16:1],5bx/8b-5b[16:1],4bx/1b-4b[16:1],
5bx/8b<6b[16:1],4bx/1b,5bx/8bz4[8:1],{16},1x,1x,,3b,3b,2b,2b,1b,1b,
2hb[2:1]/8,8,7,7,6,6,{64}7,8,1,,3,4,5,6,{16}7hb[2:1],1,2,2,3,3,{64}2,1,8,,6,5,4,3,
{16}2b,1/6,{64}8,7,6,5,4,3,2,1,8,7,6,5,4,3,2,1,{8}8,{64}A1,A2,A3,A4,A5,A6,A7,A8,B1,B2,B3,B4,B5,B6,B7,B8,{4}B1f,
,,,C1f/B1/B2/B3/B4/B5/B6/B7/B8/E1/E2/E3/E4/E5/E6/E7/E8,
{8}1h[32:7],{64}7h[32:7],,,,,,,2x,3h[32:7],,,,,,,6x,5h[32:5],,,,,,,2x,1h[32:3],,,6x,7h[32:3],,,2x,3h[32:3],,,8x,1h[32:3],,,4x,5h[64:7],,,8x,{16}7h[16:1],4xb,,
8h[32:7],,{64}2h[32:7],,,,,,,7x,6h[32:7],,,,,,,3x,4h[32:5],,,,,,,7x,8h[32:3],,,3x,2h[32:3],,,7x,6h[32:3],,,1x,8h[32:3],,,5x,4h[64:7],,,1x,{16}2h[16:1],5xb,,
1h[32:7],,{64}7h[32:7],,,,,,,2x,3h[32:7],,,,,,,6x,5h[32:5],,,,,,,2x,1h[32:3],,,6x,7h[32:3],,,2x,3h[32:3],,,8x,1h[32:3],,,4x,5h[64:7],,,8x,{16}7h[16:1],4xb,,
4h[64:3]/8h[64:3],3h[64:3]/7h[64:3],2h[64:3]/6h[64:3],1h[64:3]/5h[64:3],4h[64:3]/8h[64:3],1h[64:3]/5h[64:3],2h[64:3]/6h[64:3],3h[64:3]/7h[64:3],{4}4b>1b[16:1]/8b<5b[16:1],{64}4b/8b,D4/D8,D3/D7,D2/D6,{16},,,
1h[32:7],,{64}7h[32:7],,,,,,,2x,3h[32:7],,,,,,,6x,5h[32:5],,,,,,,2x,1h[32:3],,,6x,7h[32:3],,,2x,3h[64:7],,,8x,{16}1h[64:3],8h[64:3]/4h[64:3],1h[64:3]/3h[64:3],8b/4b,,
8h[32:7],,{64}2h[32:7],,,,,,,7x,6h[32:7],,,,,,,3x,4h[32:5],,,,,,,7x,8h[32:3],,,3x,2h[32:3],,,7x,6h[64:7],,,1x,{16}8h[64:3],1h[64:3]/5h[64:3],8h[64:3]/6h[64:3],1b/5b,,
1h[32:7],,{64}7h[32:7],,,,,,,2x,3h[32:7],,,,,,,6x,5h[32:5],,,,,,,2x,1h[32:3],,,6x,7h[32:3],,,2x,3h[64:7],,,8x,{16}1h[64:3],8h[64:3]/4h[64:3],1h[64:3]/3h[64:3],8b/4b,,
4h[64:3]/1h[64:3],3h[64:3]/8h[64:3],2h[64:3]/7h[64:3],1h[64:3]/6h[64:3],5h[64:3]/8h[64:3],1h[64:3]/6h[64:3],2h[64:3]/7h[64:3],3h[64:3]/8h[64:3],{4}4-1b[16:1]/1-6b[16:1],1b/4b,
{16}C1f/B1/B2/B3/B4/B5/B6/B7/B8/E1/E2/E3/E4/E5/E6/E7/E8,,,C1f/B1/B2/B3/B4/B5/B6/B7/B8/E1/E2/E3/E4/E5/E6/E7/E8,,,C1f/B1/B2/B3/B4/B5/B6/B7/B8/E1/E2/E3/E4/E5/E6/E7/E8,,D3f,D2/D4/E3/A2/A3,,,D7f,A6/A7/D8/E7/D6,,,
{24}1xv6[16:1],,1x,8,,8,1xv4[16:1],,1x,2,,2,1xv6[16:1],,1x,8,,8,1xv4[16:1],,1x,2,,2,
1xv6[16:1],,1x,8,,8,1x,,1x,2,,2,1x,4,3,8x,5,6,3x,4,1,6x,5,7,
8xv3[16:1],,8x,1,,1,8xv5[16:1],,8x,7,,7,8xv3[16:1],,8x,1,,1,8xv5[16:1],,8x,7,,7,
8xv3[16:1],,8x,1,,1,8xq1b[8:1],,8x,7,,7,{4},C1/B3/B4/B5/B6/A3/A4/A5/A6/E4/D4/E5/D5f/E6/D6,
{24}1>4[16:1],,1,6xb,,6,8<5[16:1],,8,3xb,,3,1>4[16:1],,1,6xb,,6,8<5[16:1],,8,3xb,,3,
1>4[16:1],,1,6xb,,6,8,,8,3xb,,3,7x,5,8,2xb,4,1,7x,6,8,2xb,3,1,
5<8[16:1],,5,2xb,,2,4>1[16:1],,4,7xb,,7,5<8[16:1],,5,2xb,,2,4,,4,7xb,,7,
3,4,3,6,5,6,E3f,E4,E2,E7,E6,E8,3,4,2,6,5,7,E3f,E4,E2,E7,E6,E8,
2,1,2,7,8,7,E3f,E4,E2,E7,E6,E8,3,4,3,1,2,1,E2f,E8,E1,E6,E4,E5,
{32}2,4,2,4,7,5,7,5,3,4,3,4,6,5,6,5,3,4,2,4,6,5,7,5,
{64}4,3,2,1,8,7,6,5,4,3,2,1,8,7,6/Cf,,
{32},,,,,,,,5<8b[16:1],,8-5b[16:1],,1>4b[16:1],,4-1b[16:1],,,,,,,,,,,,,,
{64}1b/5b,2b/6b,3b/7b,4b/8b,
